PDA

View Full Version : N/A: Wind Fantasy Double Cross Original Sound Track


Myrkul
Sep 25, 2009, 11:47 AM
I have seen 2 different tracklists for this album, the only difference between the 2 is the track 26. (it is on one and not in the other)

Not sure if the cover is the real one or just a packaging placeholder..

Don't ask me why the tracklist is like this.. :)

If someone have more informations about this album, let us know.
(wish we had some Chinese members here)

Gigablah
Sep 25, 2009, 12:13 PM
.cue file on VeryCD:

PERFORMER "风色幻想XX"
TITLE "风色幻想XX音乐CD"
FILE "原声大碟.-.[风色幻想XX音乐CD.-.Wind.Fantasy.O.S.T].专辑(APE).ape" WAVE
TRACK 01 AUDIO
TITLE "01.未知的大地 Das unbekannte Land"
PERFORMER "风色幻想XX"
FLAGS DCP
INDEX 01 00:00:00
TRACK 02 AUDIO
TITLE "02.异邦之地 Fremde"
PERFORMER "风色幻想XX"
FLAGS DCP
INDEX 01 02:30:59
TRACK 03 AUDIO
TITLE "03.和乐与平安之曲 Ein Lied von Harmonie und Frieden"
PERFORMER "风色幻想XX"
FLAGS DCP
INDEX 01 05:01:53
TRACK 04 AUDIO
TITLE "04.依莎贝菈的日常 Isabellas gew hnliches Leben"
PERFORMER "风色幻想XX"
FLAGS DCP
INDEX 01 07:11:74
TRACK 05 AUDIO
TITLE "05.意想不到的发展 Eine Unerwartete Entwicklung"
PERFORMER "风色幻想XX"
FLAGS DCP
INDEX 01 09:03:72
TRACK 06 AUDIO
TITLE "06.殿堂之上 Im K nigsschlo"
PERFORMER "风色幻想XX"
FLAGS DCP
INDEX 01 10:48:58
TRACK 07 AUDIO
TITLE "07.不讲道理的信念 Der grundlose Glaube"
PERFORMER "风色幻想XX"
FLAGS DCP
INDEX 01 14:05:74
TRACK 08 AUDIO
TITLE "08.五里迷雾 In Nebel geh IIt sein"
PERFORMER "风色幻想XX"
FLAGS DCP
INDEX 01 16:15:40
TRACK 09 AUDIO
TITLE "09.阴谋潜伏 Intrigen im Dunkel"
PERFORMER "风色幻想XX"
FLAGS DCP
INDEX 01 18:31:44
TRACK 10 AUDIO
TITLE "10.诡异的真实 Die wechselhafte Wahrheit"
PERFORMER "风色幻想XX"
FLAGS DCP
INDEX 01 20:29:21
TRACK 11 AUDIO
TITLE "11.紧迫逼人 Unter dem Druck"
PERFORMER "风色幻想XX"
FLAGS DCP
INDEX 01 22:59:17
TRACK 12 AUDIO
TITLE "12.背叛与崩溃 Verrat und Zerfall"
PERFORMER "风色幻想XX"
FLAGS DCP
INDEX 01 24:57:27
TRACK 13 AUDIO
TITLE "13.久远的呢喃 Schwalbengezwitscher vor langer Zeit"
PERFORMER "风色幻想XX"
FLAGS DCP
INDEX 01 26:19:35
TRACK 14 AUDIO
TITLE "14.恸 Tieftraurig"
PERFORMER "风色幻想XX"
FLAGS DCP
INDEX 01 28:25:68
TRACK 15 AUDIO
TITLE "15.苦衷与冰释 Uns gliche Qual und Erkl rung"
PERFORMER "风色幻想XX"
FLAGS DCP
INDEX 01 33:09:59
TRACK 16 AUDIO
TITLE "16.心的交错 Die Seelen ineinandergreifen"
PERFORMER "风色幻想XX"
FLAGS DCP
INDEX 01 36:47:40
TRACK 17 AUDIO
TITLE "17.以青空为名 Einen Eid auf den blauen Himmel ablegen"
PERFORMER "风色幻想XX"
FLAGS DCP
INDEX 01 38:41:37
TRACK 18 AUDIO
TITLE "18.异邦之战 Kampf im Ausland"
PERFORMER "风色幻想XX"
FLAGS DCP
INDEX 01 40:58:27
TRACK 19 AUDIO
TITLE "19.迫来的挑战 Sie kommen in bedrohliche N he!"
PERFORMER "风色幻想XX"
FLAGS DCP
INDEX 01 43:32:58
TRACK 20 AUDIO
TITLE "20.极限武斗 Das Gefecht"
PERFORMER "风色幻想XX"
FLAGS DCP
INDEX 01 46:00:24
TRACK 21 AUDIO
TITLE "21.魔魇 Alptra me in Realit t"
PERFORMER "风色幻想XX"
FLAGS DCP
INDEX 01 48:23:73
TRACK 22 AUDIO
TITLE "22.决死之斗 Das t dliche Duell"
PERFORMER "风色幻想XX"
FLAGS DCP
INDEX 01 51:07:73
TRACK 23 AUDIO
TITLE "23.被称为魔之人 Manche wie der Teufel"
PERFORMER "风色幻想XX"
FLAGS DCP
INDEX 01 53:32:37
TRACK 24 AUDIO
TITLE "24.希望 Hoffnung"
PERFORMER "风色幻想XX"
FLAGS DCP
INDEX 01 56:08:26
TRACK 25 AUDIO
TITLE "25.交错的轨迹 Zwei kreuzweise Bahnen"
PERFORMER "风色幻想XX"
FLAGS DCP
INDEX 01 58:56:01
TRACK 26 AUDIO
TITLE "26.风色幻想 Wind Fantasy"
PERFORMER "风色幻想XX"
FLAGS DCP
INDEX 01 61:28:08

Note that this is the premium version released on the mainland.

According to this thread (http://74.125.153.132/search?q=cache:yOz0hYbicowJ:bbs.unistar.cn/dispbbs.asp%3Fboardid%3D158%26id%3D51795%26star%3D 1%26page%3D1+%E4%BA%A4%E9%94%99%E7%9A%84%E8%BD%A8% E8%BF%B9+%22%E8%A2%AB%E7%A7%B0%E4%B8%BA%E9%AD%94%E 4%B9%8B%E4%BA%BA%22&hl=en&strip=1), the "traditional Chinese language" version (I'm presuming it's the Taiwanese release) has 25 tracks. Track 26 is apparently a vocal song which was added by the mainland distributor.