VGMdb
Go Back   VGMdb Forums > Discussion > Video Game Music Discussion > Album Discussions
Register FAQ Calendar Search Today's Posts Mark Forums Read

Reply
 
Thread Tools Search this Thread Display Modes
  #1  
Old Jul 11, 2011, 05:17 PM
PerfectZer0's Avatar
PerfectZer0 PerfectZer0 is offline
Senior Member
 
Join Date: Mar 2010
Posts: 115

I finally got my hands of this album today! I 've been wanting this ost for years (about 10 years). It was one of the harder albums for me to track down by far. But man was it worth it! I love this ost, one of my favorites of all time! And it came mint with obi, sticker, and not a scratch on it. Awesome!
Reply With Quote
  #2  
Old Jul 25, 2011, 07:29 PM
Nick G's Avatar
Nick G Nick G is offline
Junior Member
 
Join Date: Apr 2009
Location: Missouri
Posts: 25
Default

Congrats, PZ! I've had my copy for over ten years. I still have the receipt from Mikado SF in the booklet It is one of my all-time favorites, too.
Reply With Quote
  #3  
Old Apr 13, 2012, 03:26 AM
Zethe's Avatar
Zethe Zethe is offline
Senior Member
 
Join Date: Jun 2010
Location: Germany
Posts: 115
Default

Fixed the tracklist times. Previous times were probably taken from rips with wrong tracklists.

Code:
TOC of the extracted CD

     Track |   Start  |  Length  | Start sector | End sector 
    ---------------------------------------------------------
        1  |  0:00.00 |  3:40.57 |         0    |    16556   
        2  |  3:40.57 |  2:58.65 |     16557    |    29971   
        3  |  6:39.47 |  2:59.10 |     29972    |    43406   
        4  |  9:38.57 |  3:12.45 |     43407    |    57851   
        5  | 12:51.27 |  3:21.43 |     57852    |    72969   
        6  | 16:12.70 |  1:02.05 |     72970    |    77624   
        7  | 17:15.00 |  2:43.60 |     77625    |    89909   
        8  | 19:58.60 |  3:17.37 |     89910    |   104721   
        9  | 23:16.22 |  3:34.28 |    104722    |   120799   
       10  | 26:50.50 |  3:01.12 |    120800    |   134386   
       11  | 29:51.62 |  4:04.55 |    134387    |   152741   
       12  | 33:56.42 |  3:57.45 |    152742    |   170561   
       13  | 37:54.12 |  3:48.13 |    170562    |   187674   
       14  | 41:42.25 |  3:19.32 |    187675    |   202631   
       15  | 45:01.57 |  1:50.38 |    202632    |   210919
Nick G, PerfectZer0: Thanks. Your rave about this album made me dive into the Shutokou Battle music world, starting with this album. Since I know that we share a similarity in taste I thought I'd probably like it as well. My first listen is only a few weeks old but I can already say it's one of my favorite VGM series, with this CD among the very top. BIG APPLE is probably worth it alone and after listening to SPIRIT, HIGH GEAR and especially BE ALERT I was completely sold. Great catchy music that totally gets you instantly. The fact that this CD has some nice guitar parts is certainly a welcome bonus.
Reply With Quote
Reply

Thread Tools Search this Thread
Search this Thread:

Advanced Search
Display Modes

Posting Rules
You may not post new threads
You may not post replies
You may not post attachments
You may not edit your posts

BB code is On
Smilies are On
[IMG] code is On
HTML code is Off

Forum Jump

Similar Threads
Thread Thread Starter Forum Replies Last Post
ABCA-68: HRESVELGR Original Sound Track LuxKiller65 Album Discussions 3 Sep 16, 2021 01:49 PM
ABCA-4: Shutokou Battle Original Soundtrack CHz Album Discussions 7 Jan 27, 2017 11:24 AM
PSCR-9106: Shutokou Battle R Original Game Soundtrack Zethe Album Discussions 2 Mar 28, 2016 04:21 AM
ABCA-74: Shutokou Battle ZERO Original Soundtrack snowboyak08 Album Discussions 9 May 10, 2013 02:51 AM
LACA-5213: Shutokou Battle 01 Original Soundtrack CHz Album Discussions 0 Jul 18, 2008 05:50 PM