VGMdb
Go Back   VGMdb Forums > Discussion > Video Game Music Discussion > Album Discussions
Register FAQ Calendar Search Today's Posts Mark Forums Read

Reply
 
Thread Tools Search this Thread Display Modes
  #1  
Old Sep 8, 2012, 04:36 PM
Ushio's Avatar
Ushio Ushio is offline
Senior Member
 
Join Date: Mar 2012
Posts: 113

other info:
01.モノローグ~立夏
02.国語・数学・立夏…恋愛!
作詞:桃井はるこ 作曲:桃井はるこ 編曲:No Life Negotiator 歌唱:森園立夏(CV:新田恵海)


03.モノローグ~さら
04.メタモルフォーゼ、少女。
作詞:桃井はるこ 作曲:桃井はるこ 編曲:No Life Negotiator 歌唱:瑠川さら(CV:桜咲千依)


05.モノローグ~葵
06.あなたのNo.ワン!
作詞:桃井はるこ 作曲:桃井はるこ 編曲:No Life Negotiator 歌唱:陽ノ下葵(CV:海保絵果)


07.モノローグ~姫乃
08.リバーシブル!
作詞:桃井はるこ 作曲:桃井はるこ 編曲:No Life Negotiator 歌唱:葛木姫乃(CV:佐々木未来)

09.モノローグ~シャルル
10.Touchy/Feely/
作詞:桃井はるこ 作曲:桃井はるこ 編曲:No Life Negotiator 歌唱:芳乃シャルル(CV:宮崎羽衣)

11.tororo×モモ―イ スペシャル対談


cue sheet:

REM GENRE Games
REM DATE 2012
REM DISCID A10AD60B
REM COMMENT "ExactAudioCopy v1.0b3"
PERFORMER "Circus Sound Project"
TITLE "D.C.III ~ダ・カーポIII~ キャラクターソングコレクション Vol.1"
FILE "D.C.III ~ダ・カーポIII~ キャラクターソングコレクション Vol.1.flac" WAVE
TRACK 01 AUDIO
TITLE "モノローグ~立夏"
PERFORMER "森園立夏(CV:新田恵海)"
INDEX 01 00:00:00
TRACK 02 AUDIO
TITLE "国語・数学・立夏…恋愛!"
PERFORMER "森園立夏(CV:新田恵海)"
INDEX 01 00:58:40
TRACK 03 AUDIO
TITLE "モノローグ~さら"
PERFORMER "瑠川さら(CV:桜咲千依)"
INDEX 00 05:53:56
INDEX 01 05:56:32
TRACK 04 AUDIO
TITLE "メタモルフォーゼ、少女。"
PERFORMER "瑠川さら(CV:桜咲千依)"
INDEX 01 07:12:73
TRACK 05 AUDIO
TITLE "モノローグ~葵"
PERFORMER "陽ノ下葵(CV:海保絵果)"
INDEX 00 11:12:10
INDEX 01 11:15:09
TRACK 06 AUDIO
TITLE "あなたのNo.ワン!"
PERFORMER "陽ノ下葵(CV:海保絵果)"
INDEX 01 12:41:60
TRACK 07 AUDIO
TITLE "モノローグ~姫乃"
PERFORMER "葛木姫乃(CV:佐々木未来)"
INDEX 00 16:13:60
INDEX 01 16:16:57
TRACK 08 AUDIO
TITLE "リバーシブル!"
PERFORMER "葛木姫乃(CV:佐々木未来)"
INDEX 01 17:36:74
TRACK 09 AUDIO
TITLE "モノローグ~シャルル"
PERFORMER "芳乃シャルル(CV:宮崎羽衣)"
INDEX 00 22:01:03
INDEX 01 22:04:02
TRACK 10 AUDIO
TITLE "Touchy/Feely/"
PERFORMER "芳乃シャルル(CV:宮崎羽衣)"
INDEX 00 23:13:42
INDEX 01 23:16:41
TRACK 11 AUDIO
TITLE "tororo×モモ―イ スペシャル対談"
PERFORMER "tororo×桃井はるこ"
INDEX 00 27:20:43
INDEX 01 27:26:67

Last edited by Ushio; Sep 8, 2012 at 04:47 PM.
Reply With Quote
Reply

Thread Tools Search this Thread
Search this Thread:

Advanced Search
Display Modes

Posting Rules
You may not post new threads
You may not post replies
You may not post attachments
You may not edit your posts

BB code is On
Smilies are On
[IMG] code is On
HTML code is Off

Forum Jump

Similar Threads
Thread Thread Starter Forum Replies Last Post
HO-041: Chobits Character Song Collection (reprint) Kaichou Album Discussions 0 Aug 31, 2015 04:44 PM
CIRCUS-0305: D.C.III ~Da Capo III~ Vocal Album Aye Sephra Album Discussions 0 Aug 18, 2012 04:42 AM
GNCA-1298: Zettai Karen Children STARRING COLLECTION -Character Song Collection- Maze Album Discussions 0 Jul 3, 2011 08:48 PM
LACA-5284: D.C.P.S. ~Da Capo~ Plus Situation Character Image Song Vol.2 Secret Squirrel Album Discussions 0 Jan 25, 2011 04:38 PM
LACA-5193: D.C. ~Da Capo~ Character Image Song Vol.1 Secret Squirrel Album Discussions 0 Jun 10, 2008 03:48 PM