VGMdb
Go Back   VGMdb Forums > Discussion > Animation Music Discussion > Album Discussions
Register FAQ Calendar Search Today's Posts Mark Forums Read

Reply
 
Thread Tools Search this Thread Display Modes
  #1  
Old Dec 8, 2013, 08:19 PM
EternalRain EternalRain is offline
Junior Member
 
Join Date: Jan 2013
Posts: 11

Justification for tracklist edit (length is in Min:Sec.Frames, with 75 frames = 1 second + rounding up or down).

TOC of the extracted CD

Track | Start | Length | Start sector | End sector
---------------------------------------------------------
1 | 0:00.00 | 5:42.00 | 0 | 25649
2 | 5:42.00 | 3:10.43 | 25650 | 39942
3 | 8:52.43 | 6:45.37 | 39943 | 70354
4 | 15:38.05 | 5:42.00 | 70355 | 96004
5 | 21:20.05 | 4:06.53 | 96005 | 114507
6 | 25:26.58 | 4:46.70 | 114508 | 136027
Reply With Quote
Reply

Thread Tools Search this Thread
Search this Thread:

Advanced Search
Display Modes

Posting Rules
You may not post new threads
You may not post replies
You may not post attachments
You may not edit your posts

BB code is On
Smilies are On
[IMG] code is On
HTML code is Off

Forum Jump

Similar Threads
Thread Thread Starter Forum Replies Last Post
FTRC-0001: LOVE YOU! EternalRain Album Discussions 0 Dec 8, 2013 07:05 PM
TKM-0003: SIGMA Because Aye Sephra Album Discussions 1 May 18, 2013 07:39 AM
DC-0003: Chrono Eve Myrkul Album Discussions 0 Oct 16, 2011 12:30 PM
HRC-0003~4: RYUREISAISAI2 Ira Album Discussions 2 Mar 24, 2010 03:28 AM
TNK-0003: R21 Zorbfish Album Discussions 1 Oct 13, 2008 09:28 AM