VGMdb
Go Back   VGMdb Forums > Discussion > Animation Music Discussion > Album Discussions
Register FAQ Calendar Search Today's Posts Mark Forums Read

Reply
 
Thread Tools Search this Thread Display Modes
  #1  
Old Jan 12, 2010, 01:53 PM
LiquidAcid LiquidAcid is online now
Trusted Editor
 
Join Date: May 2008
Posts: 1,597

Added track times, here's the cuesheet for reference:

Code:
FILE "LACA-5754.wav" WAVE
  TRACK 01 AUDIO
    INDEX 01 00:00:00
  TRACK 02 AUDIO
    INDEX 00 02:16:48
    INDEX 01 02:17:55
  TRACK 03 AUDIO
    INDEX 00 03:47:20
    INDEX 01 03:49:68
  TRACK 04 AUDIO
    INDEX 00 03:56:57
    INDEX 01 03:57:53
  TRACK 05 AUDIO
    INDEX 00 05:40:40
    INDEX 01 05:41:35
  TRACK 06 AUDIO
    INDEX 00 07:11:33
    INDEX 01 07:12:29
  TRACK 07 AUDIO
    INDEX 00 09:10:38
    INDEX 01 09:11:33
  TRACK 08 AUDIO
    INDEX 00 10:46:56
    INDEX 01 10:47:44
  TRACK 09 AUDIO
    INDEX 00 12:13:21
    INDEX 01 12:14:13
  TRACK 10 AUDIO
    INDEX 00 13:52:46
    INDEX 01 13:53:41
  TRACK 11 AUDIO
    INDEX 00 15:45:32
    INDEX 01 15:46:30
  TRACK 12 AUDIO
    INDEX 00 17:28:49
    INDEX 01 17:29:35
  TRACK 13 AUDIO
    INDEX 00 19:22:56
    INDEX 01 19:23:51
  TRACK 14 AUDIO
    INDEX 00 21:23:36
    INDEX 01 21:24:31
  TRACK 15 AUDIO
    INDEX 00 23:28:59
    INDEX 01 23:29:53
  TRACK 16 AUDIO
    INDEX 00 25:16:10
    INDEX 01 25:17:02
  TRACK 17 AUDIO
    INDEX 00 27:24:01
    INDEX 01 27:24:68
  TRACK 18 AUDIO
    INDEX 00 29:15:05
    INDEX 01 29:15:72
  TRACK 19 AUDIO
    INDEX 00 31:15:39
    INDEX 01 31:16:33
  TRACK 20 AUDIO
    INDEX 00 31:22:34
    INDEX 01 31:23:28
  TRACK 21 AUDIO
    INDEX 00 33:02:60
    INDEX 01 33:03:54
  TRACK 22 AUDIO
    INDEX 00 34:41:44
    INDEX 01 34:42:45
  TRACK 23 AUDIO
    INDEX 00 36:31:43
    INDEX 01 36:32:44
  TRACK 24 AUDIO
    INDEX 00 38:14:67
    INDEX 01 38:15:64
  TRACK 25 AUDIO
    INDEX 00 40:03:67
    INDEX 01 40:04:63
  TRACK 26 AUDIO
    INDEX 00 42:08:46
    INDEX 01 42:09:48
  TRACK 27 AUDIO
    INDEX 00 44:13:61
    INDEX 01 44:14:62
  TRACK 28 AUDIO
    INDEX 00 46:46:36
    INDEX 01 46:47:38
  TRACK 29 AUDIO
    INDEX 00 49:01:72
    INDEX 01 49:02:70
  TRACK 30 AUDIO
    INDEX 00 50:45:18
    INDEX 01 50:46:08
  TRACK 31 AUDIO
    INDEX 00 52:44:22
    INDEX 01 52:45:23
  TRACK 32 AUDIO
    INDEX 00 55:28:38
    INDEX 01 55:29:34
  TRACK 33 AUDIO
    INDEX 00 57:53:14
    INDEX 01 57:54:05
  TRACK 34 AUDIO
    INDEX 00 60:01:39
    INDEX 01 60:02:37
  TRACK 35 AUDIO
    INDEX 00 62:05:67
    INDEX 01 62:06:65
  TRACK 36 AUDIO
    INDEX 00 64:06:14
    INDEX 01 64:07:25
  TRACK 37 AUDIO
    INDEX 00 66:05:15
    INDEX 01 66:06:20
  TRACK 38 AUDIO
    INDEX 00 67:35:45
    INDEX 01 67:36:47
  TRACK 39 AUDIO
    INDEX 00 69:52:30
    INDEX 01 69:53:36
  TRACK 40 AUDIO
    INDEX 00 71:47:36
    INDEX 01 71:48:43
  TRACK 41 AUDIO
    INDEX 00 73:53:10
    INDEX 01 73:54:10
  TRACK 42 AUDIO
    INDEX 00 75:53:50
    INDEX 01 75:56:24
Reply With Quote
Reply

Thread Tools Search this Thread
Search this Thread:

Advanced Search
Display Modes

Posting Rules
You may not post new threads
You may not post replies
You may not post attachments
You may not edit your posts

BB code is On
Smilies are On
[IMG] code is On
HTML code is Off

Forum Jump

Similar Threads
Thread Thread Starter Forum Replies Last Post
LACA-15530: Pure Blue Scenes Illidan Album Discussions 2 Dec 18, 2015 09:24 AM
LPTN-0019~20: PURE×CONNECT Original Soundtrack Teioh Album Discussions 0 Nov 28, 2015 02:10 AM
VPCG-84935: HUNTER×HUNTER Phantom Rouge Original Soundtrack Phonograph Album Discussions 0 Feb 5, 2014 12:00 AM
N/A: Pure Pure ~A Tale of Ear and Tail~ Special CD Secret Squirrel Album Discussions 2 Jul 15, 2008 12:46 PM
LACA-5016: Pure Mail Originalsoundtrack Secret Squirrel Album Discussions 0 Jun 8, 2008 11:13 AM