VGMdb
Go Back   VGMdb Forums > Discussion > Video Game Music Discussion > Album Discussions
Register FAQ Calendar Search Today's Posts Mark Forums Read

Reply
 
Thread Tools Search this Thread Display Modes
  #1  
Old Jul 24, 2011, 04:14 PM
Myrkul's Avatar
Myrkul Myrkul is online now
VGMdb Staff
 
Join Date: Sep 2007
Location: France
Posts: 2,940

I am not making a reprint because it's too early to see if it's needed or not... (it needs a different packaging)

But it seems like this entry will also be available with the Japanese Collector's Edition of the PSP Game, 1 day later (13th of october)
For 12,760 Yens.
Official informations here.
Exclusively available on the Square Enix e-store.
Reply With Quote
  #2  
Old Jul 24, 2011, 10:13 PM
Zanasea's Avatar
Zanasea Zanasea is offline
VGMdb Staff
 
Join Date: Dec 2007
Location: France
Posts: 628
Default

Well, packaging or not, it's not a reprint because it has a bonus DVD, no? And the packaging will be different anyway.
Reply With Quote
  #3  
Old Oct 30, 2011, 08:52 AM
LiquidAcid LiquidAcid is offline
Trusted Editor
 
Join Date: May 2008
Posts: 1,595
Default

Disc 3 seems to have 19 tracks. One containing silence and the two others being probably bonus tracks.

Cuesheet:
Code:
REM GENRE Soundtrack
REM DATE 2011
REM DISCID 130FE213
REM COMMENT "ExactAudioCopy v0.99pb5"
PERFORMER "石元丈晴"
TITLE "FINAL FANTASY 零式 Original Soundtrack DISC3"
FILE "SQEX-10279.ape" WAVE
  TRACK 01 AUDIO
    TITLE "蒼き魂"
    PERFORMER "石元丈晴"
    INDEX 01 00:00:00
  TRACK 02 AUDIO
    TITLE "揺蕩う想い"
    PERFORMER "石元丈晴"
    INDEX 01 03:10:50
  TRACK 03 AUDIO
    TITLE "戦 - 追撃"
    PERFORMER "石元丈晴"
    INDEX 00 07:18:12
    INDEX 01 07:19:70
  TRACK 04 AUDIO
    TITLE "人の弱さと強さ"
    PERFORMER "石元丈晴"
    INDEX 00 11:12:37
    INDEX 01 11:14:10
  TRACK 05 AUDIO
    TITLE "自らの歴史と運命"
    PERFORMER "石元丈晴"
    INDEX 00 14:50:72
    INDEX 01 14:52:35
  TRACK 06 AUDIO
    TITLE "空翔る"
    PERFORMER "石元丈晴"
    INDEX 00 17:33:55
    INDEX 01 17:36:10
  TRACK 07 AUDIO
    TITLE "戦 - 静かな激闘"
    PERFORMER "石元丈晴"
    INDEX 00 20:22:00
    INDEX 01 20:24:30
  TRACK 08 AUDIO
    TITLE "戦 - ナラクの底"
    PERFORMER "石元丈晴"
    INDEX 00 22:38:54
    INDEX 01 22:41:00
  TRACK 09 AUDIO
    TITLE "マキナ・クナギリ/Arrange Version"
    PERFORMER "石元丈晴"
    INDEX 00 25:54:45
    INDEX 01 25:57:00
  TRACK 10 AUDIO
    TITLE "レム・トキミヤ/Arrange Version"
    PERFORMER "石元丈晴"
    INDEX 01 28:28:65
  TRACK 11 AUDIO
    TITLE "戦 - 静かな激闘/Arrange Version"
    PERFORMER "石元丈晴"
    INDEX 00 31:10:35
    INDEX 01 31:12:65
  TRACK 12 AUDIO
    TITLE "フィニスの刻"
    PERFORMER "石元丈晴"
    INDEX 00 35:06:35
    INDEX 01 35:08:65
  TRACK 13 AUDIO
    TITLE "マキナとレム"
    PERFORMER "石元丈晴"
    INDEX 00 37:59:15
    INDEX 01 38:01:45
  TRACK 14 AUDIO
    TITLE "裁きの刻"
    PERFORMER "石元丈晴"
    INDEX 00 43:07:40
    INDEX 01 43:09:70
  TRACK 15 AUDIO
    TITLE "朱雀の炎"
    PERFORMER "石元丈晴"
    INDEX 00 47:27:59
    INDEX 01 47:32:20
  TRACK 16 AUDIO
    TITLE "零式"
    PERFORMER "石元丈晴"
    INDEX 00 50:34:30
    INDEX 01 50:36:60
  TRACK 17 AUDIO
    TITLE "Track17"
    PERFORMER "石元丈晴"
    INDEX 01 58:31:55
  TRACK 18 AUDIO
    TITLE "Track18"
    PERFORMER "石元丈晴"
    INDEX 00 58:31:56
    INDEX 01 58:44:55
  TRACK 19 AUDIO
    TITLE "Track19"
    PERFORMER "石元丈晴"
    INDEX 00 58:44:56
    INDEX 01 63:16:40
Reply With Quote
  #4  
Old Nov 21, 2012, 12:51 PM
Mac_Tear Mac_Tear is offline
Senior Member
 
Join Date: Feb 2009
Location: Germany
Posts: 305
Default

What are those bonus tracks at the end of disc three?
Reply With Quote
Reply

Thread Tools Search this Thread
Search this Thread:

Advanced Search
Display Modes

Posting Rules
You may not post new threads
You may not post replies
You may not post attachments
You may not edit your posts

BB code is On
Smilies are On
[IMG] code is On
HTML code is Off

Forum Jump

Similar Threads
Thread Thread Starter Forum Replies Last Post
SQEX-10284~5: FINAL FANTASY XI Original Soundtrack -PLUS- Ramza Album Discussions 24 Feb 7, 2019 10:02 AM
SQEX-10281~3: FINAL FANTASY TYPE-0 Original Soundtrack Phonograph Album Discussions 20 Aug 6, 2018 06:55 AM
SQEX-10485: The Best of FINAL FANTASY TYPE-0 HD & FINAL FANTASY AGITO Phonograph Album Discussions 6 Mar 17, 2018 11:41 AM
SQEX-20019: FINAL FANTASY TYPE-0 HD Original Soundtrack James O Album Discussions 11 May 18, 2016 09:06 AM
2040303: Final Fantasy Type-0 HD Composer Selections Zanasea Album Discussions 1 Mar 8, 2015 07:05 PM