VGMdb
Go Back   VGMdb Forums > Discussion > Video Game Music Discussion > Album Discussions
Register FAQ Calendar Search Today's Posts Mark Forums Read

Reply
 
Thread Tools Search this Thread Display Modes
  #1  
Old Jul 21, 2013, 10:28 AM
EternalRain EternalRain is offline
Junior Member
 
Join Date: Jan 2013
Posts: 11

Where did you get the information for the tracks beyond 8? It's not printed on the album artwork, and I got a copy that hadn't even been opened yet...
Edit: Never mind, the information is on the data track.

Last edited by EternalRain; Jul 21, 2013 at 11:08 AM.
Reply With Quote
  #2  
Old Jul 27, 2013, 08:15 PM
EternalRain EternalRain is offline
Junior Member
 
Join Date: Jan 2013
Posts: 11
Default

About the tracklist change:

TOC of the extracted CD

Track | Start | Length | Start sector | End sector
---------------------------------------------------------
1 | 0:00.00 | 5:56.00 | 0 | 26699
2 | 5:56.00 | 4:27.00 | 26700 | 46724
3 | 10:23.00 | 4:08.00 | 46725 | 65324
4 | 14:31.00 | 3:12.00 | 65325 | 79724
5 | 17:43.00 | 4:15.00 | 79725 | 98849
6 | 21:58.00 | 3:24.00 | 98850 | 114149
7 | 25:22.00 | 4:06.00 | 114150 | 132599
8 | 29:28.00 | 5:21.00 | 132600 | 156674
9 | 34:49.00 | 2:00.00 | 156675 | 165674
10 | 36:49.00 | 3:02.00 | 165675 | 179324
11 | 42:23.00 | 1:00.61 | 190725 | 195285
Reply With Quote
  #3  
Old Jan 26, 2021, 10:14 PM
Chris Porter's Avatar
Chris Porter Chris Porter is offline
Trusted Editor
VGM Artist
 
Join Date: Sep 2014
Location: Okayama, JAPAN
Posts: 1,469
Default

I added images for this one: booklet (front, back, pages), Obi, disc, tray, and back.
Reply With Quote
  #4  
Old Jan 27, 2021, 05:42 AM
Chris Porter's Avatar
Chris Porter Chris Porter is offline
Trusted Editor
VGM Artist
 
Join Date: Sep 2014
Location: Okayama, JAPAN
Posts: 1,469
Default

This is a fantastic album. I dig every track. Track #8 "Distance of Dream", composed by Ebi, is my favorite. I love the opening vocal track as well. Strange there's no credit for the vocalist.

I added the lyricist credit to the notes and to the artist field.

Edit: I asked OdiakeS on Twitter who the singer is for the opening track and he said that she had asked to remain anonymous.

Last edited by Chris Porter; Jan 28, 2021 at 01:40 AM.
Reply With Quote
Reply

Thread Tools Search this Thread
Search this Thread:

Advanced Search
Display Modes

Posting Rules
You may not post new threads
You may not post replies
You may not post attachments
You may not edit your posts

BB code is On
Smilies are On
[IMG] code is On
HTML code is Off

Forum Jump

Similar Threads
Thread Thread Starter Forum Replies Last Post
Sdorica -sunset- ORIGINAL SOUNDTRACK cal Album Discussions 1 Jun 26, 2018 07:54 AM
SJVSC-000X: libre EternalRain Album Discussions 0 Feb 6, 2014 02:46 PM
ZTCG-002: Zest CD Book Vol.2 Marie no Atelier: Fateful Day ~Firefly Glow, Singing?~ Cedille Album Discussions 0 Sep 14, 2012 05:12 AM
VAF-001: The Borderline of Morning Glow jdkluv Album Discussions 0 Nov 30, 2010 11:58 AM
LACA-5609: Edelweiss Vocal album CD "Sunset Sunrise" sinnoh1 Album Discussions 1 Oct 14, 2010 07:09 AM