VGMdb
Go Back   VGMdb Forums > Discussion > Video Game Music Discussion > Album Discussions
Register FAQ Calendar Search Today's Posts Mark Forums Read

Reply
 
Thread Tools Search this Thread Display Modes
  #1  
Old Jan 21, 2013, 10:34 AM
LiquidAcid LiquidAcid is offline
Trusted Editor
 
Join Date: May 2008
Posts: 1,599

@Argentis: Could you check the composer breakdown in the notes? If I'm counting correctly, then already on disc 1 there credits for 5 tracks are missing.
Reply With Quote
  #2  
Old Jan 21, 2013, 01:37 PM
Argentis's Avatar
Argentis Argentis is offline
Senior Member
 
Join Date: Jan 2009
Posts: 183
Default

Which tracks are you missing?
Reply With Quote
  #3  
Old Jan 21, 2013, 01:41 PM
LiquidAcid LiquidAcid is offline
Trusted Editor
 
Join Date: May 2008
Posts: 1,599
Default

1.01 for example.
Reply With Quote
  #4  
Old Jan 22, 2013, 12:06 AM
Argentis's Avatar
Argentis Argentis is offline
Senior Member
 
Join Date: Jan 2009
Posts: 183
Default

Edited. What were the remaining four you needed tags for?
Reply With Quote
  #5  
Old Jan 22, 2013, 03:14 AM
Myrkul's Avatar
Myrkul Myrkul is offline
VGMdb Staff
 
Join Date: Sep 2007
Location: France
Posts: 2,958
Default

Would be easier to read the notes in a format like this maybe
[disc 1]
Artist / tracks
Artist / tracks

[disc 2...]
Artist / tracks ... ...
Reply With Quote
  #6  
Old Jan 22, 2013, 03:26 AM
LiquidAcid LiquidAcid is offline
Trusted Editor
 
Join Date: May 2008
Posts: 1,599
Default

I honestly don't see how this is "easier". It's just a permutation of the info.
Reply With Quote
  #7  
Old Jan 23, 2013, 11:12 AM
LiquidAcid LiquidAcid is offline
Trusted Editor
 
Join Date: May 2008
Posts: 1,599
Default

Here are the cuesheets btw:

Disc 1:
Spoiler:
Code:
TITLE "Blade & Soul -The World- Original Soundtrack Disc1"
REM GENRE "Soundtrack"
REM DATE "2012"
REM DISCNUMBER 1
REM TOTALDISCS 3
REM DISCID 7C101D1C
REM COMPILATION TRUE
FILE "Blade & Soul -The World- Original Soundtrack Disc1.flac" WAVE
  TRACK 01 AUDIO
    TITLE "The Morning of Crimson Peak"
    PERFORMER "Chihwan Kim"
    ISRC KRA601201101
    INDEX 01 00:00:00
  TRACK 02 AUDIO
    TITLE "Storm Clouds"
    PERFORMER "Lin-G"
    ISRC KRA601201102
    INDEX 01 01:10:18
  TRACK 03 AUDIO
    TITLE "Bambuo Village"
    PERFORMER "Changbeom Kim"
    ISRC KRA601201103
    INDEX 01 03:23:51
  TRACK 04 AUDIO
    TITLE "Forest of the Dead"
    PERFORMER "Chihwan Kim"
    ISRC KRA601201104
    INDEX 00 05:59:03
    INDEX 01 06:00:67
  TRACK 05 AUDIO
    TITLE "Shadow of the Moon"
    PERFORMER "Hyobeum Lim"
    ISRC KRA601201105
    INDEX 01 08:30:45
  TRACK 06 AUDIO
    TITLE "The Race for Fate"
    PERFORMER "Hyobeum Lim"
    ISRC KRA601201106
    INDEX 00 10:48:74
    INDEX 01 10:51:65
  TRACK 07 AUDIO
    TITLE "The Black Fog"
    PERFORMER "Hyobeum Lim"
    ISRC KRA601201107
    INDEX 01 13:06:32
  TRACK 08 AUDIO
    TITLE "Black Shaow Forest"
    PERFORMER "Lin-G"
    ISRC KRA601201108
    INDEX 00 15:50:06
    INDEX 01 15:51:64
  TRACK 09 AUDIO
    TITLE "Stepping on Shadows"
    PERFORMER "Lin-G"
    ISRC KRA601201109
    INDEX 00 18:26:21
    INDEX 01 18:28:69
  TRACK 10 AUDIO
    TITLE "Illusion Forest"
    PERFORMER "Jinwoo Choi"
    ISRC KRA601201110
    INDEX 00 20:49:13
    INDEX 01 20:50:70
  TRACK 11 AUDIO
    TITLE "One Step in Hope"
    PERFORMER "Changbeom Kim"
    ISRC KRA601201111
    INDEX 00 23:39:53
    INDEX 01 23:40:58
  TRACK 12 AUDIO
    TITLE "Hwajoong's Spirit"
    PERFORMER "Lin-G"
    ISRC KRA601201112
    INDEX 00 26:35:20
    INDEX 01 26:36:47
  TRACK 13 AUDIO
    TITLE "Emerald Village"
    PERFORMER "Changbeom Kim"
    ISRC KRA601201113
    INDEX 00 27:24:60
    INDEX 01 27:26:21
  TRACK 14 AUDIO
    TITLE "Counterattack of the Dead"
    PERFORMER "Junyeop Lee"
    ISRC KRA601201114
    INDEX 00 29:18:16
    INDEX 01 29:19:59
  TRACK 15 AUDIO
    TITLE "Pine Stone Island"
    PERFORMER "Hyobeum Lim"
    ISRC KRA601201115
    INDEX 01 31:14:73
  TRACK 16 AUDIO
    TITLE "The Pot Fighter"
    PERFORMER "Jinwoo Choi"
    ISRC KRA601201116
    INDEX 00 33:17:16
    INDEX 01 33:19:73
  TRACK 17 AUDIO
    TITLE "Pinehill Temple"
    PERFORMER "Changbeom Kim"
    ISRC KRA601201117
    INDEX 00 34:26:17
    INDEX 01 34:27:30
  TRACK 18 AUDIO
    TITLE "Hammer of the Dog Sorcerer"
    PERFORMER "Junyeop Lee"
    ISRC KRA601201118
    INDEX 00 37:12:62
    INDEX 01 37:15:48
  TRACK 19 AUDIO
    TITLE "Boulder Valley"
    PERFORMER "Hyobeum Lim"
    ISRC KRA601201119
    INDEX 00 38:48:05
    INDEX 01 38:49:60
  TRACK 20 AUDIO
    TITLE "Bloodwind"
    PERFORMER "Lin-G"
    ISRC KRA601201120
    INDEX 00 44:08:64
    INDEX 01 44:10:02
  TRACK 21 AUDIO
    TITLE "The Deadly Sword. Part 1"
    PERFORMER "Hyobeum Lim"
    ISRC KRA601201121
    INDEX 00 46:25:38
    INDEX 01 46:27:27
  TRACK 22 AUDIO
    TITLE "The Deadly Sword. Part 2"
    PERFORMER "Chihwan Kim"
    ISRC KRA601201122
    INDEX 00 49:02:50
    INDEX 01 49:04:13
  TRACK 23 AUDIO
    TITLE "Pirate's Cave"
    PERFORMER "Changbeom Kim"
    ISRC KRA601201123
    INDEX 00 51:49:66
    INDEX 01 51:52:60
  TRACK 24 AUDIO
    TITLE "The Penetration"
    PERFORMER "Changbeom Kim"
    ISRC KRA601201124
    INDEX 01 54:52:05
  TRACK 25 AUDIO
    TITLE "The Black Shaow"
    PERFORMER "Junyeop Lee"
    ISRC KRA601201125
    INDEX 01 57:12:12
  TRACK 26 AUDIO
    TITLE "The Great Swordsman"
    PERFORMER "Chihwan Kim"
    ISRC KRA601201126
    INDEX 00 59:30:02
    INDEX 01 59:32:39
  TRACK 27 AUDIO
    TITLE "Things We Lost"
    PERFORMER "Changbeom Kim"
    ISRC KRA601201127
    INDEX 00 61:38:31
    INDEX 01 61:39:44
  TRACK 28 AUDIO
    TITLE "A New Beginning"
    PERFORMER "Chihwan Kim"
    ISRC KRA601201128
    INDEX 00 67:10:40
    INDEX 01 67:12:50


Disc 2:
Spoiler:
Code:
TITLE "Blade & Soul -The World- Original Soundtrack Disc2"
REM GENRE "Soundtrack"
REM DATE "2012"
REM DISCNUMBER 2
REM TOTALDISCS 3
REM DISCID 8B128C1D
REM COMPILATION TRUE
FILE "Blade & Soul -The World- Original Soundtrack Disc2.flac" WAVE
  TRACK 01 AUDIO
    TITLE "The Ambush"
    PERFORMER "Junyeop Lee"
    ISRC KRA601201129
    INDEX 01 00:00:00
  TRACK 02 AUDIO
    TITLE "Lonely Village"
    PERFORMER "Jinwoo Choi"
    ISRC KRA601201130
    INDEX 01 02:01:19
  TRACK 03 AUDIO
    TITLE "Mud Gate Region"
    PERFORMER "Chihwan Kim"
    ISRC KRA601201131
    INDEX 00 03:11:07
    INDEX 01 03:12:19
  TRACK 04 AUDIO
    TITLE "The Sand of Heat"
    PERFORMER "Junyeop Lee"
    ISRC KRA601201132
    INDEX 00 07:46:09
    INDEX 01 07:47:53
  TRACK 05 AUDIO
    TITLE "Yu Village"
    PERFORMER "Lin-G"
    ISRC KRA601201133
    INDEX 00 12:01:23
    INDEX 01 12:02:55
  TRACK 06 AUDIO
    TITLE "Martial God"
    PERFORMER "Chihwan Kim"
    ISRC KRA601201134
    INDEX 00 13:59:20
    INDEX 01 14:00:71
  TRACK 07 AUDIO
    TITLE "Sandstorm"
    PERFORMER "Chihwan Kim"
    ISRC KRA601201135
    INDEX 00 14:40:14
    INDEX 01 14:42:16
  TRACK 08 AUDIO
    TITLE "Two Sprits"
    PERFORMER "Lin-G"
    ISRC KRA601201136
    INDEX 00 23:37:59
    INDEX 01 23:39:42
  TRACK 09 AUDIO
    TITLE "The Tavern"
    PERFORMER "Changbeom Kim"
    ISRC KRA601201137
    INDEX 00 25:19:50
    INDEX 01 25:20:69
  TRACK 10 AUDIO
    TITLE "Mud Gate Inn"
    PERFORMER "Jinwoo Choi,Changbeom Kim"
    ISRC KRA601201138
    INDEX 01 26:11:43
  TRACK 11 AUDIO
    TITLE "Treasure Hunter"
    PERFORMER "Chihwan Kim"
    ISRC KRA601201139
    INDEX 01 28:28:13
  TRACK 12 AUDIO
    TITLE "Naru"
    PERFORMER "Junyeop Lee"
    ISRC KRA601201140
    INDEX 00 30:16:45
    INDEX 01 30:17:70
  TRACK 13 AUDIO
    TITLE "The Ancient Assasin"
    PERFORMER "Changbeom Kim"
    ISRC KRA601201141
    INDEX 00 32:27:46
    INDEX 01 32:30:07
  TRACK 14 AUDIO
    TITLE "Vice Party"
    PERFORMER "Hyobeum Lim"
    ISRC KRA601201142
    INDEX 00 35:31:38
    INDEX 01 35:33:69
  TRACK 15 AUDIO
    TITLE "Dry Land"
    PERFORMER "Lin-G"
    ISRC KRA601201143
    INDEX 00 36:37:51
    INDEX 01 36:39:07
  TRACK 16 AUDIO
    TITLE "The Pot Workshop"
    PERFORMER "Lin-G"
    ISRC KRA601201144
    INDEX 00 38:51:16
    INDEX 01 38:53:38
  TRACK 17 AUDIO
    TITLE "Darkspear"
    PERFORMER "Chihwan Kim"
    ISRC KRA601201145
    INDEX 00 41:22:21
    INDEX 01 41:23:71
  TRACK 18 AUDIO
    TITLE "Wugachaka"
    PERFORMER "Hyobeum Lim"
    ISRC KRA601201146
    INDEX 01 46:10:55
  TRACK 19 AUDIO
    TITLE "Warriors Village"
    PERFORMER "Hyobeum Lim"
    ISRC KRA601201147
    INDEX 00 47:48:66
    INDEX 01 47:50:26
  TRACK 20 AUDIO
    TITLE "Runaway Warriors"
    PERFORMER "Chihwan Kim"
    ISRC KRA601201148
    INDEX 00 51:07:52
    INDEX 01 51:09:40
  TRACK 21 AUDIO
    TITLE "Claygrave Catacombs"
    PERFORMER "Junghwan Park"
    ISRC KRA601201149
    INDEX 00 51:58:03
    INDEX 01 52:00:61
  TRACK 22 AUDIO
    TITLE "Wolf Clan"
    PERFORMER "Changbeom Kim"
    ISRC KRA601201150
    INDEX 00 54:57:19
    INDEX 01 54:58:54
  TRACK 23 AUDIO
    TITLE "The Black Bird"
    PERFORMER "Changbeom Kim"
    ISRC KRA601201151
    INDEX 01 58:36:69
  TRACK 24 AUDIO
    TITLE "Black Grotto Market"
    PERFORMER "Junyeop Lee"
    ISRC KRA601201152
    INDEX 00 61:48:35
    INDEX 01 61:49:38
  TRACK 25 AUDIO
    TITLE "The Skull Mask"
    PERFORMER "Lin-G"
    ISRC KRA601201153
    INDEX 00 62:29:39
    INDEX 01 62:31:46
  TRACK 26 AUDIO
    TITLE "Howling Temple"
    PERFORMER "Junghwan Park"
    ISRC KRA601201154
    INDEX 00 65:13:42
    INDEX 01 65:14:65
  TRACK 27 AUDIO
    TITLE "Wing of the Martial God"
    PERFORMER "Hyobeum Lim"
    ISRC KRA601201155
    INDEX 00 67:23:73
    INDEX 01 67:25:44
  TRACK 28 AUDIO
    TITLE "Grave of Sacrifice"
    PERFORMER "Hyobeum Lim"
    ISRC KRA601201156
    INDEX 01 69:08:65
  TRACK 29 AUDIO
    TITLE "Blaze Monkey King"
    PERFORMER "Hyobeum Lim"
    ISRC KRA601201157
    INDEX 00 76:25:67
    INDEX 01 76:27:57


Disc 3:
Spoiler:
Code:
TITLE "Blade & Soul -The World- Original Soundtrack Disc3"
REM GENRE "Soundtrack"
REM DATE "2012"
REM DISCNUMBER 3
REM TOTALDISCS 3
REM DISCID 88111F1C
REM COMPILATION TRUE
FILE "Blade & Soul -The World- Original Soundtrack Disc3.flac" WAVE
  TRACK 01 AUDIO
    TITLE "Distorted Vital Force"
    PERFORMER "Hyobeum Lim"
    ISRC KRA601201158
    INDEX 01 00:00:00
  TRACK 02 AUDIO
    TITLE "The Road"
    PERFORMER "Junghwan Park"
    ISRC KRA601201159
    INDEX 00 02:13:38
    INDEX 01 02:15:37
  TRACK 03 AUDIO
    TITLE "A Wolf Beneath the Wind"
    PERFORMER "Changbeom Kim"
    ISRC KRA601201160
    INDEX 00 06:55:65
    INDEX 01 06:57:64
  TRACK 04 AUDIO
    TITLE "Master of Sunset"
    PERFORMER "Hyobeum Lim"
    ISRC KRA601201161
    INDEX 00 08:59:72
    INDEX 01 09:01:71
  TRACK 05 AUDIO
    TITLE "The Maple House"
    PERFORMER "Lin-G"
    ISRC KRA601201162
    INDEX 00 09:32:25
    INDEX 01 09:34:24
  TRACK 06 AUDIO
    TITLE "Lost"
    PERFORMER "Junyeop Lee"
    ISRC KRA601201163
    INDEX 00 10:52:65
    INDEX 01 10:54:64
  TRACK 07 AUDIO
    TITLE "Windmill Village"
    PERFORMER "Lin-G"
    ISRC KRA601201164
    INDEX 00 12:17:61
    INDEX 01 12:19:60
  TRACK 08 AUDIO
    TITLE "The Uninvited"
    PERFORMER "Chihwan Kim"
    ISRC KRA601201165
    INDEX 00 14:47:37
    INDEX 01 14:49:36
  TRACK 09 AUDIO
    TITLE "Dominator of Wild Beasts"
    PERFORMER "Hyobeum Lim"
    ISRC KRA601201166
    INDEX 00 17:36:09
    INDEX 01 17:38:08
  TRACK 10 AUDIO
    TITLE "Shadow the Lake"
    PERFORMER "Lin-G"
    ISRC KRA601201167
    INDEX 00 21:07:07
    INDEX 01 21:09:07
  TRACK 11 AUDIO
    TITLE "The Chaser"
    PERFORMER "Lin-G"
    ISRC KRA601201168
    INDEX 00 24:03:01
    INDEX 01 24:05:01
  TRACK 12 AUDIO
    TITLE "Half-Moon Lake"
    PERFORMER "Junghwan Park"
    ISRC KRA601201169
    INDEX 00 26:08:48
    INDEX 01 26:10:47
  TRACK 13 AUDIO
    TITLE "The Festival"
    PERFORMER "Changbeom Kim"
    ISRC KRA601201170
    INDEX 00 29:25:68
    INDEX 01 29:27:67
  TRACK 14 AUDIO
    TITLE "Five Colored Dream"
    PERFORMER "Changbeom Kim"
    ISRC KRA601201171
    INDEX 00 30:26:63
    INDEX 01 30:28:62
  TRACK 15 AUDIO
    TITLE "The Guardian of Phantom City"
    PERFORMER "Chihwan Kim"
    ISRC KRA601201172
    INDEX 00 32:13:23
    INDEX 01 32:15:25
  TRACK 16 AUDIO
    TITLE "Commander's Soul"
    PERFORMER "Chihwan Kim"
    ISRC KRA601201173
    INDEX 00 34:50:01
    INDEX 01 34:52:00
  TRACK 17 AUDIO
    TITLE "The Absence of Reinforcements"
    PERFORMER "Chihwan Kim"
    ISRC KRA601201174
    INDEX 00 36:55:55
    INDEX 01 36:57:61
  TRACK 18 AUDIO
    TITLE "Ritual for the King's Accession"
    PERFORMER "Chihwan Kim"
    ISRC KRA601201175
    INDEX 00 41:46:33
    INDEX 01 41:48:32
  TRACK 19 AUDIO
    TITLE "The Invincible Four"
    PERFORMER "Hyobeum Lim"
    ISRC KRA601201176
    INDEX 00 46:57:39
    INDEX 01 46:58:40
  TRACK 20 AUDIO
    TITLE "Swirling Tainted Chi. Part.1"
    PERFORMER "Hyobeum Lim"
    ISRC KRA601201177
    INDEX 00 50:46:08
    INDEX 01 50:48:07
  TRACK 21 AUDIO
    TITLE "Swirling Tainted Chi. Part.2"
    PERFORMER "Changbeom Kim"
    ISRC KRA601201178
    INDEX 00 53:29:67
    INDEX 01 53:31:66
  TRACK 22 AUDIO
    TITLE "Mist of dawn light"
    PERFORMER "Junghwan Park"
    ISRC KRA601201179
    INDEX 00 57:23:15
    INDEX 01 57:25:14
  TRACK 23 AUDIO
    TITLE "Secret Base"
    PERFORMER "Changbeom Kim"
    ISRC KRA601201180
    INDEX 00 60:18:41
    INDEX 01 60:20:40
  TRACK 24 AUDIO
    TITLE "Labyrinth"
    PERFORMER "Junghwan Park"
    ISRC KRA601201181
    INDEX 00 63:30:68
    INDEX 01 63:32:38
  TRACK 25 AUDIO
    TITLE "Dangerous Escape"
    PERFORMER "Lin-G"
    ISRC KRA601201182
    INDEX 00 64:31:24
    INDEX 01 64:32:35
  TRACK 26 AUDIO
    TITLE "Invitation of Pohwaran"
    PERFORMER "Chihwan Kim"
    ISRC KRA601201183
    INDEX 00 66:20:01
    INDEX 01 66:21:70
  TRACK 27 AUDIO
    TITLE "Bloody Shark Harbor"
    PERFORMER "Hyobeum Lim"
    ISRC KRA601201184
    INDEX 00 68:39:37
    INDEX 01 68:40:66
  TRACK 28 AUDIO
    TITLE "Fatal Strike"
    PERFORMER "Hyobeum Lim"
    ISRC KRA601201185
    INDEX 00 71:09:40
    INDEX 01 71:11:06
Reply With Quote
  #8  
Old Feb 8, 2013, 11:27 PM
folker84's Avatar
folker84 folker84 is offline
Member
 
Join Date: Feb 2011
Posts: 48
Default

What's the correct translation in DISC 3 for tracks 20 & 21?

The korean titles are:

20 휘몰아치는 탁기 Part1
21 휘몰아치는 탁기 Part2

But english ones are:
20 Swirling Tainted Chi. Part. 1
21 Turbulent Machines. Part. 2

EDIT: That titles in that cuesheets posted by LiquidAcid are the correct ones?

Last edited by folker84; Feb 8, 2013 at 11:34 PM.
Reply With Quote
Reply

Thread Tools Search this Thread
Search this Thread:

Advanced Search
Display Modes

Posting Rules
You may not post new threads
You may not post replies
You may not post attachments
You may not edit your posts

BB code is On
Smilies are On
[IMG] code is On
HTML code is Off

Forum Jump

Similar Threads
Thread Thread Starter Forum Replies Last Post
ZMCZ-4632: QUEEN'S BLADE ORIGINAL SOUNDTRACK Vol.2 -the evil eye- whatkind Album Discussions 0 Aug 14, 2016 12:33 AM
XQEF-1003~4: Ninja Blade Original Soundtrack Carl Album Discussions 8 Aug 5, 2016 06:58 PM
Blade Symphony Original Soundtrack MiLO Album Discussions 2 Nov 11, 2014 03:03 AM
Blade & Soul OST Argentis Album Discussions 2 Sep 10, 2012 07:16 AM
S03SD-CD001: Soul Nomad & The World Eaters Original Soundtrack (reprint) lockshaw13 Album Discussions 3 Nov 7, 2009 09:26 AM