VGMdb
Go Back   VGMdb Forums > Discussion > Video Game Music Discussion > Album Discussions
Register FAQ Calendar Search Today's Posts Mark Forums Read

Reply
 
Thread Tools Search this Thread Display Modes
  #1  
Old Dec 11, 2012, 01:45 PM
Secret Squirrel's Avatar
Secret Squirrel Secret Squirrel is online now
VGMdb Administrator
 
Join Date: May 2007
Location: Cleveland, OH
Posts: 6,069

I'm really hesitant to allow a tracktime to change from 3:02 to 2:33 when it already has 4 successful lookups on the freedb. We need a little more information on this.
Reply With Quote
  #2  
Old Dec 12, 2012, 07:17 AM
flybefly's Avatar
flybefly flybefly is offline
Member
 
Join Date: Oct 2007
Posts: 68
Default

Exact Audio Copy V1.0 beta 3 from 29. August 2011

EAC extraction logfile from 10. September 2012, 9:18

M@SATOSHI / FifteenHounds オリジナルサウンドトラック

Used drive : SONY DVD RW DRU-880S Adapter: 2 ID: 1

Read mode : Secure
Utilize accurate stream : Yes
Defeat audio cache : Yes
Make use of C2 pointers : No

Read offset correction : 48
Overread into Lead-In and Lead-Out : No
Fill up missing offset samples with silence : Yes
Delete leading and trailing silent blocks : No
Null samples used in CRC calculations : Yes
Used interface : Native Win32 interface for Win NT & 2000

Used output format : User Defined Encoder
Selected bitrate : 768 kBit/s
Quality : High
Add ID3 tag : No
Command line compressor : C:\Program Files\Exact Audio Copy\FLAC\FLAC.EXE
Additional command line options : -6 -V -T "ARTIST=%artist%" -T "TITLE=%title%" -T "ALBUM=%albumtitle%" -T "DATE=%year%" -T "TRACKNUMBER=%tracknr%" -T "GENRE=%genre%" -T "COMMENT=%comment%" -T "BAND=%albuminterpret%" -T "ALBUMARTIST=%albuminterpret%" -T "COMPOSER=%composer%" %haslyrics%--tag-from-file=LYRICS="%lyricsfile%"%haslyrics% -T "DISCNUMBER=%cdnumber%" -T "TOTALDISCS=%totalcds%" -T "TOTALTRACKS=%numtracks%" %hascover%--picture="%coverfile%"%hascover% %source% -o %dest%


TOC of the extracted CD

Track | Start | Length | Start sector | End sector
---------------------------------------------------------
1 | 0:00.00 | 2:57.07 | 0 | 13281
2 | 2:57.07 | 3:02.28 | 13282 | 26959
3 | 5:59.35 | 3:02.28 | 26960 | 40637
4 | 9:01.63 | 2:26.09 | 40638 | 51596
5 | 11:27.72 | 3:02.28 | 51597 | 65274
6 | 14:30.25 | 3:02.28 | 65275 | 78952

7 | 17:32.53 | 2:45.18 | 78953 | 91345
8 | 20:17.71 | 2:39.00 | 91346 | 103270
9 | 22:56.71 | 2:11.37 | 103271 | 113132
10 | 25:08.33 | 3:02.28 | 113133 | 126810
11 | 28:10.61 | 3:02.28 | 126811 | 140488
12 | 31:13.14 | 3:31.09 | 140489 | 156322
13 | 34:44.23 | 3:02.28 | 156323 | 170000
14 | 37:46.51 | 2:58.28 | 170001 | 183378
15 | 40:45.04 | 2:24.28 | 183379 | 194206
16 | 43:09.32 | 2:28.18 | 194207 | 205324
17 | 45:37.50 | 2:43.46 | 205325 | 217595
18 | 48:21.21 | 3:02.28 | 217596 | 231273
19 | 51:23.49 | 3:02.28 | 231274 | 244951
20 | 54:26.02 | 4:10.37 | 244952 | 263738
21 | 58:36.39 | 3:02.28 | 263739 | 277416
22 | 61:38.67 | 2:26.56 | 277417 | 288422
23 | 64:05.48 | 2:32.18 | 288423 | 299840
24 | 66:37.66 | 3:54.19 | 299841 | 317409
25 | 70:32.10 | 3:53.54 | 317410 | 334938


Range status and errors

Selected range

Filename F:\rip\FifteenHounds ORIGINAL SOUNDTRACK\FifteenHounds01.wav

Peak level 100.0 %
Extraction speed 4.5 X
Range quality 100.0 %
Copy CRC 61DCF2F8
Copy OK

No errors occurred


AccurateRip summary

Track 1 not present in database
Track 2 not present in database
Track 3 not present in database
Track 4 not present in database
Track 5 not present in database
Track 6 not present in database
Track 7 not present in database
Track 8 not present in database
Track 9 not present in database
Track 10 not present in database
Track 11 not present in database
Track 12 not present in database
Track 13 not present in database
Track 14 not present in database
Track 15 not present in database
Track 16 not present in database
Track 17 not present in database
Track 18 not present in database
Track 19 not present in database
Track 20 not present in database
Track 21 not present in database
Track 22 not present in database
Track 23 not present in database
Track 24 not present in database
Track 25 not present in database

None of the tracks are present in the AccurateRip database

End of status report

==== Log checksum CEFAB5666980B2366CE4C46BF4E36EE1AD379035440ECEE61B AEDC400C07F6F2 ====

the log may explain why beford me change disc1 track 5 time 4 freedb successful

I change the tracktime cause this is ripped from disc

http://muym.web.fc2.com/fifteenhounds/goods.html


two disc (right and wrong) only 1 difference

track 5 is problem

reak track only 2:33
we can download from the page

http://muym.web.fc2.com/fifteenhounds/goods.html

Last edited by flybefly; Dec 23, 2012 at 03:26 PM.
Reply With Quote
Reply

Thread Tools Search this Thread
Search this Thread:

Advanced Search
Display Modes

Posting Rules
You may not post new threads
You may not post replies
You may not post attachments
You may not edit your posts

BB code is On
Smilies are On
[IMG] code is On
HTML code is Off

Forum Jump