VGMdb
Go Back   VGMdb Forums > Discussion > Video Game Music Discussion > Album Discussions
Register FAQ Calendar Search Today's Posts Mark Forums Read

Reply
 
Thread Tools Search this Thread Display Modes
  #1  
Old Sep 10, 2014, 08:25 PM
foolydooly foolydooly is offline
Member
 
Join Date: Aug 2010
Posts: 42

So, looks like there's been stamping error

Any one know what's going on?
Reply With Quote
  #2  
Old Apr 13, 2019, 10:58 PM
Milktea's Avatar
Milktea Milktea is offline
Trusted Editor
 
Join Date: Aug 2017
Posts: 374
Default

Yes, the tracklist is printed incorrectly. I have corrected.
Reply With Quote
  #3  
Old Aug 13, 2020, 03:49 AM
Robin's Avatar
Robin Robin is offline
Trusted Editor
 
Join Date: Jul 2019
Location: France
Posts: 236
Default

About that, what's the true tracklist order? Is the tracklist order in the notebook wrong? Because i've got a rip, but unfortunately with no CUE to know which is the right one.
This is the one I have.

01. 约束 (instrumental ver) 4:04
02. 残暑 2:37
03. どこにもない明日 2:10
04. you (Original ver_カラオケ) 3:40
05. キョウ 2:42
06. dark angel 5:25
07. Final Answer (short ver) 1:46
08. ryu 1:26
09. 明日の梦 (instrumental ver) 2:49
Reply With Quote
  #4  
Old Oct 15, 2020, 11:38 AM
Habanero Habanero is offline
Junior Member
 
Join Date: Apr 2020
Posts: 15
Default

Quote:
Originally Posted by Fivda View Post
About that, what's the true tracklist order? Is the tracklist order in the notebook wrong? Because i've got a rip, but unfortunately with no CUE to know which is the right one.
This is the one I have.

01. 约束 (instrumental ver) 4:04
02. 残暑 2:37
03. どこにもない明日 2:10
04. you (Original ver_カラオケ) 3:40
05. キョウ 2:42
06. dark angel 5:25
07. Final Answer (short ver) 1:46
08. ryu 1:26
09. 明日の梦 (instrumental ver) 2:49
This is the correct order on the disc itself. No idea how the track list was misprinted on the booklet.

TOC of the extracted CD

Track | Start | Length | Start sector | End sector
---------------------------------------------------------
1 | 0:00.00 | 4:03.40 | 0 | 18264
2 | 4:03.40 | 2:37.33 | 18265 | 30072
3 | 6:40.73 | 2:10.17 | 30073 | 39839
4 | 8:51.15 | 3:39.46 | 39840 | 56310
5 | 12:30.61 | 2:42.34 | 56311 | 68494
6 | 15:13.20 | 5:24.45 | 68495 | 92839
7 | 20:37.65 | 1:46.08 | 92840 | 100797
8 | 22:23.73 | 1:26.22 | 100798 | 107269
9 | 23:50.20 | 2:49.18 | 107270 | 119962
Reply With Quote
  #5  
Old Oct 15, 2020, 12:22 PM
Robin's Avatar
Robin Robin is offline
Trusted Editor
 
Join Date: Jul 2019
Location: France
Posts: 236
Default

Retouched the notes so that they're appropriate to the new tracklist.
__________________
Twitter140VGM140ABGMKodamaSoft
Reply With Quote
Reply

Thread Tools Search this Thread
Search this Thread:

Advanced Search
Display Modes

Posting Rules
You may not post new threads
You may not post replies
You may not post attachments
You may not edit your posts

BB code is On
Smilies are On
[IMG] code is On
HTML code is Off

Forum Jump

Similar Threads
Thread Thread Starter Forum Replies Last Post
MGBT-0001: Higurashi no Naku Koro ni 10th Anniversary CD -you&history- Azalea Album Discussions 9 Sep 11, 2020 07:13 AM
MGBT-0002: Higurashi no Naku Koro ni × Umineko no Naku Koro ni Piano... Phonograph Album Discussions 3 Sep 28, 2019 09:47 AM
FCCM-0135: Higurashi no Naku Koro ni / Eiko Shimamiya Phonograph Album Discussions 0 Jul 11, 2011 01:58 AM
WACD-001: Drama CD Higurashi no Naku Koro ni ~Onikakushi-hen~ Secret Squirrel Album Discussions 0 Apr 7, 2011 02:26 PM
FCCM-0199: HIGURASHI NO NAKU KORO NI KAI SOUNDTRACK vol.1 KeyLogic Album Discussions 6 Oct 25, 2010 02:00 PM