VGMdb
Go Back   VGMdb Forums > Discussion > Animation Music Discussion > Album Discussions
Register FAQ Calendar Search Today's Posts Mark Forums Read

Reply
 
Thread Tools Search this Thread Display Modes
  #1  
Old Oct 13, 2013, 09:43 AM
EternalRain EternalRain is offline
Junior Member
 
Join Date: Jan 2013
Posts: 11

Catalog number is printed on the CD and obi.
http://i.imgur.com/SfnoRrl.jpg

Track lengths are from extracted TOC.
TOC of the extracted CD

Track | Start | Length | Start sector | End sector
---------------------------------------------------------
1 | 0:00.00 | 4:59.21 | 0 | 22445
2 | 4:59.21 | 4:15.69 | 22446 | 41639
3 | 9:15.15 | 4:17.17 | 41640 | 60931
4 | 13:32.32 | 3:24.62 | 60932 | 76293
5 | 16:57.19 | 4:39.58 | 76294 | 97276
6 | 21:37.02 | 3:59.34 | 97277 | 115235
7 | 25:36.36 | 4:47.72 | 115236 | 136832
8 | 30:24.33 | 4:59.20 | 136833 | 159277
9 | 35:23.53 | 4:47.73 | 159278 | 180875

Lengths are in Min:Sec.Frames format, with 75 Frames = 1 second. I rounded up or down depending on the frame count; if there's a better way to do this feel free to fix the track lengths.

Last edited by EternalRain; Oct 13, 2013 at 09:49 AM.
Reply With Quote
Reply

Thread Tools Search this Thread
Search this Thread:

Advanced Search
Display Modes

Posting Rules
You may not post new threads
You may not post replies
You may not post attachments
You may not edit your posts

BB code is On
Smilies are On
[IMG] code is On
HTML code is Off

Forum Jump

Similar Threads
Thread Thread Starter Forum Replies Last Post
SRVC-1051: Kaze to Mori no Jazz / All That Jazz UltimateDespairGirl Album Discussions 0 Dec 8, 2018 01:03 AM
VICJ-61670: Cure☆Jazz / Riyoko feat. Silent Jazz Case Ushio Album Discussions 4 Jun 12, 2017 11:08 PM
Terra Magica LiquidAcid Album Discussions 0 Apr 9, 2016 03:25 AM
KICA-3219: The world! EVAngelion JAZZ night =The Tokyo III Jazz club= XISMZERO Album Discussions 0 Mar 31, 2015 10:39 AM
CPCA-10186: Gyakuten Saiban Jazz Album ~Gyakuten Meets Jazz Soul~ Secret Squirrel Album Discussions 3 Nov 25, 2008 07:04 PM