VGMdb
Go Back   VGMdb Forums > Discussion > Video Game Music Discussion > Album Discussions
Register FAQ Calendar Search Today's Posts Mark Forums Read

Reply
 
Thread Tools Search this Thread Display Modes
  #1  
Old May 29, 2009, 09:04 AM
seanne's Avatar
seanne seanne is offline
VGMdb Staff
 
Join Date: May 2007
Location: Sweden
Posts: 1,374

There seems to have also been a promo of this cd at some point, according to Daryl's Library

He doesn't have much on it though apart from this scan:

Reply With Quote
  #2  
Old May 30, 2019, 04:47 AM
radorn radorn is offline
Junior Member
 
Join Date: Jul 2008
Posts: 18
Default

A CUE sheet for this album has landed in my hands, but it has two extra tracks.

TITLE "Melodies Of Life"
FILE "CDImage.ape" WAVE
TRACK 01 AUDIO
TITLE "Melodies Of Life ~featured in FINAL FANTASY Ⅸ〈日本語バージョン〉"
PERFORMER "白鳥英美子"
INDEX 01 00:00:00
TRACK 02 AUDIO
TITLE "Melodies Of Life ~featured in FINAL FANTASY Ⅸ〈英語ヴァージョン〉"
PERFORMER "白鳥英美子"
INDEX 01 05:54:06
TRACK 03 AUDIO
TITLE "Melodies Of Life ~featured in FINAL FANTASY Ⅸ〈INSTRUMENTAL〉"
PERFORMER "浜口史郎"
INDEX 01 11:47:23
TRACK 04 AUDIO
TITLE "Galwayの空"
PERFORMER "白鳥英美子"
INDEX 01 17:40:52
TRACK 05 AUDIO
TITLE "Melodies Of Life〈エンディングテーマ〉"
PERFORMER "白鳥英美子"
INDEX 01 23:29:57
TRACK 06 AUDIO
TITLE "Melodies Of Life〈エンディングテーマ・オフボーカル〉"
PERFORMER "浜口史郎"
INDEX 01 31:02:66

I can't seem to find this on the site. Any ideas?
Reply With Quote
  #3  
Old May 30, 2019, 07:16 AM
Phonograph's Avatar
Phonograph Phonograph is offline
Senior Member
 
Join Date: Jun 2010
Posts: 3,900
Default

probably some bootleg
Reply With Quote
Reply

Thread Tools Search this Thread
Search this Thread:

Advanced Search
Display Modes

Posting Rules
You may not post new threads
You may not post replies
You may not post attachments
You may not edit your posts

BB code is On
Smilies are On
[IMG] code is On
HTML code is Off

Forum Jump

Similar Threads
Thread Thread Starter Forum Replies Last Post
SQEX-10586: Piano Collections FINAL FANTASY XV: Moonlit Melodies CrackerG Album Discussions 12 May 24, 2017 10:47 PM
SVWC-7172: white melodies of FINAL FANTASY TACTICS ADVANCE James O Album Discussions 0 Jan 21, 2013 11:16 PM
SQEX-50012: Final Fantasy Crystal Chronicles: My Life as a King & My Life... Nisto Album Discussions 0 Feb 18, 2012 01:53 PM
PRT-8429: EYES ON ME: featured in FINAL FANTASY VIII Nisto Album Discussions 6 Mar 24, 2010 10:19 AM
SSCX-10053: suteki da ne featured in FINAL FANTASY X BahamutZ Album Discussions 4 Oct 17, 2008 08:05 AM