VGMdb
Go Back   VGMdb Forums > Discussion > Video Game Music Discussion > Album Discussions
Register FAQ Calendar Search Today's Posts Mark Forums Read

Reply
 
Thread Tools Search this Thread Display Modes
  #1  
Old Jan 6, 2010, 06:26 PM
Metroid's Avatar
Metroid Metroid is offline
Senior Member
 
Join Date: Aug 2008
Location: UK
Posts: 231

Data Track Reference:

Code:
TOC of the extracted CD

     Track |   Start  |  Length  | Start sector | End sector 
    ---------------------------------------------------------
        1  |  0:00.00 |  0:22.64 |         0    |     1713   
        2  |  0:22.64 |  3:24.43 |      1714    |    17056   
        3  |  3:47.32 |  2:31.14 |     17057    |    28395   
        4  |  6:18.46 |  5:07.26 |     28396    |    51446   
        5  | 11:25.72 |  0:28.66 |     51447    |    53612   
        6  | 11:54.63 |  0:43.51 |     53613    |    56888   
        7  | 12:38.39 |  2:14.47 |     56889    |    66985   
        8  | 14:53.11 |  1:00.24 |     66986    |    71509   
        9  | 15:53.35 |  4:42.09 |     71510    |    92668   
       10  | 20:35.44 |  2:43.26 |     92669    |   104919   
       11  | 23:18.70 |  1:16.59 |    104920    |   110678   
       12  | 24:35.54 |  2:31.74 |    110679    |   122077   
       13  | 27:07.53 |  2:22.54 |    122078    |   132781   
       14  | 29:30.32 |  1:28.02 |    132782    |   139383   
       15  | 30:58.34 |  1:24.45 |    139384    |   145728   
       16  | 32:23.04 |  1:06.54 |    145729    |   150732   
       17  | 33:29.58 |  3:19.66 |    150733    |   165723   
       18  | 36:49.49 |  3:43.70 |    165724    |   182518   
       19  | 40:33.44 |  1:17.06 |    182519    |   188299   
       20  | 41:50.50 |  3:39.69 |    188300    |   204793   
       21  | 45:30.44 |  2:07.55 |    204794    |   214373   
       22  | 47:38.24 |  5:10.01 |    214374    |   237624   
       23  | 55:20.25 | 18:37.50 |    249025    |   332849
Reply With Quote
  #2  
Old Oct 15, 2015, 12:52 PM
spark_2503 spark_2503 is offline
Member
 
Join Date: Nov 2013
Posts: 40
Default

Renamed the tracklists. Adding the data track to the default English tracklist doesn't allow the freedb emulator to work properly when only the audio tracks are detected by the program used to auto-tag files.

BTW, what are the contents of the data tracks?

Last edited by spark_2503; Oct 15, 2015 at 12:57 PM.
Reply With Quote
Reply

Thread Tools Search this Thread
Search this Thread:

Advanced Search
Display Modes

Posting Rules
You may not post new threads
You may not post replies
You may not post attachments
You may not edit your posts

BB code is On
Smilies are On
[IMG] code is On
HTML code is Off

Forum Jump

Similar Threads
Thread Thread Starter Forum Replies Last Post
WWCE-31020: TRIPLE THREAT: SONIC HEROES VOCAL TRAX Secret Squirrel Album Discussions 4 Jul 14, 2019 07:48 AM
WWCE-31382: SONIC RUNNERS Complete Soundtrack TKDJohnofVG Album Discussions 0 Jul 5, 2016 01:39 PM
WWCE-31296~8: SONIC LOST WORLD ORIGINAL SOUNDTRACK WITHOUT BOUNDARIES DXAshram Album Discussions 10 Nov 26, 2013 12:51 PM
WWCE-31279: SONIC THE HEDGEHOG 4 EPISODE I & II Original Soundtrack Boyblunder Album Discussions 32 Oct 8, 2012 01:27 PM
WWCE-31255: SONIC HEROES Original Soundtrack 20th Anniversary Edition Kaleb.G Album Discussions 2 Jan 13, 2012 05:26 PM