VGMdb
Go Back   VGMdb Forums > Discussion > Video Game Music Discussion > Album Discussions
Register FAQ Calendar Search Today's Posts Mark Forums Read

Reply
 
Thread Tools Search this Thread Display Modes
  #31  
Old Jun 22, 2012, 04:20 PM
Cedille Cedille is offline
Trusted Editor
 
Join Date: Sep 2007
Location: Tokyo
Posts: 2,026

I find a scan (RVL-SVMP-EUR) that is seemingly from the European release, so there might be ones for U.S and Australia as well.

Interesting to know more Nintendo's CD releases than I thought actually have catalog numbers, though some of them are apparently on the inner ring of the back of a disc, which is rarely scanned.
Reply With Quote
  #32  
Old Aug 25, 2015, 04:27 PM
RingoStarr39 RingoStarr39 is offline
Junior Member
 
Join Date: Feb 2015
Location: Baden, Pennsylvania
Posts: 18
Default

The DVD case front scan is incorrect for this version. The Japanese version of this has a picture of a Famicom on the front, not an NES.
http://ecx.images-amazon.com/images/...L._SL1500_.jpg
Reply With Quote
  #33  
Old Aug 20, 2019, 03:35 AM
layzee's Avatar
layzee layzee is offline
Senior Member
 
Join Date: May 2008
Location: .au
Posts: 366
Default

Probably a bit of a newbie question but when I ripped this CD with EAC, my tracks have an extra 3-6 seconds. Is there something wrong with the way I ripped it or something wrong with my CD drive? My other VGM rips matches the tracklists here, plus or minus a second.

I changed the overall EAC settings as per the guides, and the first track is still 3:15 long (not 3:11) despite changing the "Gap/Index retrieval method" setting (i.e Detection Method A, B, C) and "Detection accuracy" setting (i.e. Accurate, Secure). Accurate Rip is enabled.

TOC of the extracted CD

Track | Start | Length | Start sector | End sector
---------------------------------------------------------
1 | 0:00.00 | 3:14.57 | 0 | 14606
2 | 3:14.57 | 1:44.09 | 14607 | 22415
3 | 4:58.66 | 1:16.40 | 22416 | 28155
4 | 6:15.31 | 1:51.00 | 28156 | 36480
5 | 8:06.31 | 2:47.24 | 36481 | 49029
6 | 10:53.55 | 3:02.60 | 49030 | 62739
7 | 13:56.40 | 3:01.02 | 62740 | 76316
8 | 16:57.42 | 4:05.28 | 76317 | 94719
9 | 21:02.70 | 1:43.26 | 94720 | 102470
10 | 22:46.21 | 2:00.07 | 102471 | 111477
11 | 24:46.28 | 0:05.10 | 111478 | 111862
12 | 24:51.38 | 0:04.46 | 111863 | 112208
13 | 24:56.09 | 0:05.23 | 112209 | 112606
14 | 25:01.32 | 0:05.16 | 112607 | 112997
15 | 25:06.48 | 0:05.10 | 112998 | 113382
16 | 25:11.58 | 0:07.03 | 113383 | 113910
17 | 25:18.61 | 0:06.67 | 113911 | 114427
18 | 25:25.53 | 0:08.08 | 114428 | 115035
19 | 25:33.61 | 0:09.58 | 115036 | 115768
20 | 25:43.44 | 0:10.58 | 115769 | 116576

Oh and I'm in this particular album's thread because freedb tagging failed.
__________________
-Project Saitama- The S.S.H. Fan Site
~S.S.H. Discussion Forum~

Last edited by layzee; Aug 20, 2019 at 03:54 AM.
Reply With Quote
  #34  
Old Dec 18, 2019, 06:55 AM
layzee's Avatar
layzee layzee is offline
Senior Member
 
Join Date: May 2008
Location: .au
Posts: 366
Default

Based on the track times EAC has given me, I'll go ahead and revert the track times back to before the 2012 edit unless there are any objections.

Previous disc length: 25:16
Adjusted disc length: 25:54
__________________
-Project Saitama- The S.S.H. Fan Site
~S.S.H. Discussion Forum~

Last edited by layzee; Dec 18, 2019 at 06:58 AM.
Reply With Quote
Reply

Thread Tools Search this Thread
Search this Thread:

Advanced Search
Display Modes

Posting Rules
You may not post new threads
You may not post replies
You may not post attachments
You may not edit your posts

BB code is On
Smilies are On
[IMG] code is On
HTML code is Off

Forum Jump

Similar Threads
Thread Thread Starter Forum Replies Last Post
2090-Fall97: Super Mario 64 Original Sound Track (reprint) Myrkul Album Discussions 2 Jan 1, 2021 09:55 AM
73135A: SUPER MARIO HISTORY 1985-2010 Soundtrack CD (reprint) d-leto! Album Discussions 2 Feb 23, 2016 08:08 AM
Fake Super Mario Galaxy 2 Original Sound Track Kaleb.G Video Game Music Discussion 37 May 27, 2010 02:11 PM
CN-P079: SUPER MARIO GALAXY ORIGINAL SOUND TRACK Secret Squirrel Album Discussions 2 May 25, 2010 03:06 AM
Super Mario 64 Original Sound Track (reprint) CHz Album Discussions 0 Apr 15, 2010 04:23 PM